Indonesia | MacGyver 2016 S02E12 HDTV x264-LOL[ettv] | HD The Dog


Login
Username:
Password:
[Signup]
[Recover Account]


Browse Torrents

Poll


You must be logged in to view polls



Torrent Details For "Baahubali.2.2017.[Hindi Video Songs].Untouched BD50. -.Download"

Baahubali.2.2017.[Hindi Video Songs].Untouched BD50. -.Download

Download this torrent | Magnet Download
Health:
Seeds: 5
Leechers: 6
Completed: 29 
Last Checked: 16-01-2018 17:29:01
External Torrent
Update Stats


Watch-Free-HD     Download

Poster


iMDB
Imdb Picture Title: Baahubali 2: The Conclusion
Year: 2017
Runtime: 167 minutes
Votes: 3274
Rating: 9.4/10
Language: Telugu, Tamil, Hindi, Malayalam
Country: India
All Genres: Action, Adventure, Drama, Fantasy
Plot Outline: When Shiva, the son of Bahubali, learns about his heritage, he begins to look for answers. His story is juxtaposed with past events that unfolded in the Mahishmati Kingdom.
Director: S.S. Rajamouli
Writing By: Mankombu Gopalakrishnan,Madhan Karky,C.H. Vijay Kumar,Manoj Muntashir,Vijayendra Prasad,S.S. Rajamouli,
Produced By: Prasad Devineni,K. Raghavendra Rao,Shobu Yarlagadda,
Plot:

When Shiva, the son of Bahubali, learns about his heritage, he begins to look for answers. His story is juxtaposed with past events that unfolded in the Mahishmati Kingdom.


Cast:
Prabhas as Amarendra Baahubali
Rana Daggubati as Bhallaladeva
Anushka Shetty as Devasena
Tamannaah Bhatia as Avanthika
Ramya Krishnan as Sivagami
Nassar as Bijjaladeva
Sathyaraj as Kattappa
Trailers:
'Baahubali 2: The Conclusion' Trailer
'Baahubali 2: The Conclusion' Trailer


Watch-Free-HD     Download

Details
Name:Baahubali.2.2017.[Hindi Video Songs].Untouched BD50. -.Download
Description:
[email protected]DownloadHD
Thanks to [email protected]

General
Format: BDAV
Format/Info: Blu-ray Video
File size: 40.5 GiB
Duration: 2 h 47 min
Overall bit rate mode: Variable
Overall bit rate: 34.7 Mb/s
Maximum Overall bit rate: 48.0 Mb/s

Video
Format: AVC
Format/Info: Advanced Video Codec
Format profile: [email protected]
Format settings, CABAC: Yes
Format settings, RefFrames: 4 frames
Bit rate: 32.0 Mb/s
Nominal bit rate: 30.0 Mb/s
Width: 1 920 pixels
Height: 1 080 pixels
Stream size: 37.3 GiB (92%)

Audio #1
Format: TrueHD / AC-3
Format profile: TrueHD+Atmos / TrueHD / AC-3
Bit rate: 640 kb/s
Maximum bit rate: 8 949 kb/s
Channel(s): Object Based / 8 channels / 6 channels
Stream size: 764 MiB (2%)

Audio #2
Format: AC-3
Bit rate: 640 kb/s
Channel(s): 6 channels
Stream size: 766 MiB (2%)[/align]
.::Tracklist::.
Hamsa Naava
Jay Jaykara
Kanna Nidurinchara
Saahore Baahubali



  
  
Category:Music > Bollywood
Lang:Hindi
Total Size:4.25 GB
Info Hash:b3d8d6eaaaf087f006b38115e90adbddc484201a
Added By:Download
Date Added:11-10-2017 09:26:33
Downloads:440

Download Torrent

Ratings:Not Yet Rated (Log in to rate it)


Tracker:
http://ipv4.tracker.harry.lu/announce

This Torrent also has backup trackers
URLSeedersLeechersCompleted
http://ipv4.tracker.harry.lu/announce003
http://ipv4.tracker.harry.lu:80/announce003
http://opentracker-milanesi.rhcloud.com/announce000
http://t.nyaatracker.com/announce100
http://tracker.devil-torrents.pl:80/announce5110
http://tracker.devil-torrents.pl/announce5110
http://open.kickasstracker.com/announce130
http://opentracker-milanesi.rhcloud.com:80/announce000
http://open.kickasstracker.com:443/announce130
http://opentracker-milanesi.rhcloud.com:443/announce000
http://t.nyaatracker.com:80/announce100


File List: 


Comments

No comments still posted

Powered by 10 Hamsters v2-svn -|- Page Generated In 0.756934 secs.
-|- RSS Feed -|- Feed Info
Theme By: Nikkbu