Watch Movie | Arrows On The Bowstring | Total Drama Action


Login
Username:
Password:
[Signup]
[Recover Account]


Browse Torrents

Poll


You must be logged in to view polls



Torrent Details For "Guardians of the Galaxy 2014 1080p IMAX Bluray 12bit x265 7.1 AAC EN FR ES HEVC Natty"

Guardians of the Galaxy 2014 1080p IMAX Bluray 12bit x265 7.1 AAC EN FR ES HEVC Natty

Download this torrent | Magnet Download
Health:
Seeds: 46
Leechers: 36
Completed: 43 
Last Checked: 07-11-2017 04:43:09
External Torrent
Update Stats


Watch-Free-HD     Download

Poster


iMDB
Imdb Picture Title: Guardians of the Galaxy
Year: 2014
Runtime: 121 minutes
Votes: 797209
Rating: 8.1/10
Language: English
Country: USA, UK
All Genres: Action, Adventure, Sci-Fi
Plot Outline: A group of intergalactic criminals are forced to work together to stop a fanatical warrior from taking control of the universe.
Tagline: All heroes start somewhere.
Director: James Gunn
Writing By: James Gunn,Nicole Perlman,Dan Abnett,Andy Lanning,Bill Mantlo,Keith Giffen,Jim Starlin,Steve Englehart,Steve Gan,Steve Gerber,Val Mayerik,Gene Colan,Arnold Drake,Jack Kirby,Stan Lee,Roger Stern,Marv Wolfman,Larry Lieber,Don Heck,John Buscema,Dick Ayers,Mike Friedrich,
Produced By: Victoria Alonso,Jamie Christopher,Louis D'Esposito,Kevin Feige,Alan Fine,David J. Grant,Nikolas Korda,Jeremy Latcham,Stan Lee,Jonathan Schwartz,
Music: Tyler Bates
Cast:
Chris Pratt as Peter Quill
Zoe Saldana as Gamora
Dave Bautista as Drax
Vin Diesel as Groot
Bradley Cooper as Rocket
Lee Pace as Ronan
Michael Rooker as Yondu Udonta
Karen Gillan as Nebula
Djimon Hounsou as Korath
John C. Reilly as Corpsman Dey
Trailers:
Extended International Trailer
International Trailer
Trailer #2
Trailer #1


Watch-Free-HD     Download

Details
Name:Guardians of the Galaxy 2014 1080p IMAX Bluray 12bit x265 7.1 AAC EN FR ES HEVC Natty
Description:
Guardians of the Galaxy 2014 in 1080p, encoded with x265 (HEVC) and 7.1 AAC English + 2.0 AAC English Commentary + 5.1 AAC Spanish + 5.1 French Audios with multiple subtitles!
Encoded using the time consuming Slow Preset with 2 pass, 12 bit color at 4800 kbps, from Untouched Bluray Source, for the highest quality possible.



PLEASE SEED IF YOU WANT ME TO UPLOAD MORE:Qpirate:

Quote:

RECOMMENDED PLAYER: POTPLAYER

Source: Bluray Remux by RARBG

Screenshots








Encode Media Info:

Quote:

General
Complete name                            : Guardians of the Galaxy 2014 1080p IMAX Bluray 12bit x265 7.1 AAC EN FR ES HEVC Natty.mkv
Format                                   : Matroska
Format version                           : Version 4 / Version 2
File size                                : 4.04 GiB
Duration                                 : 2 h 0 min
Overall bit rate                         : 4 785 kb/s
Movie name                               : Guardians.of.the.Galaxy.2014.1080p.IMAX.BluRay.REMUX.AVC.DTS-HD.MA.7.1-RARBG
Encoded date                             : UTC 2017-10-30 10:38:00
Writing application                      : mkvmerge v17.0.0 ('Be Ur Friend') 64-bit
Writing library                          : libebml v1.3.5 + libmatroska v1.4.8
Writing frontend                         : Natty

Video
ID                                       : 1
Format                                   : HEVC
Format/Info                              : High Efficiency Video Coding
Format profile                           : @[email protected]
Codec ID                                 : V_MPEGH/ISO/HEVC
Duration                                 : 2 h 0 min
Bit rate                                 : 3 332 kb/s
Width                                    : 1 920 pixels
Height                                   : 1 080 pixels
Display aspect ratio                     : 16:9
Frame rate mode                          : Constant
Frame rate                               : 23.976 (24000/1001) FPS
Color space                              : YUV
Chroma subsampling                       : 4:2:0
Bit depth                                : 12 bits
Bits/(Pixel*Frame)                       : 0.067
Stream size                              : 2.81 GiB (70%)
Writing library                          : x265 2.5+27-0e168bdeb48b:[Windows][MSVC 1911][64 bit] 12bit
Encoding settings                        : cpuid=1173503 / frame-threads=2 / numa-pools=4 / wpp / no-pmode / no-pme / no-psnr / no-ssim / log-level=2 / csvfn=D:\Encoding\Guardians.of.the.Galaxy.2014.1080p.IMAX.BluRay.REMUX.AVC.DTS-HD.MA.7.1-RARBG_new.csv / csv-log-level=0 / input-csp=1 / input-res=1920x1080 / interlace=0 / total-frames=173836 / level-idc=0 / high-tier=1 / uhd-bd=0 / ref=6 / no-allow-non-conformance / no-repeat-headers / annexb / no-aud / no-hrd / info / hash=0 / no-temporal-layers / open-gop / min-keyint=23 / keyint=400 / bframes=8 / b-adapt=2 / b-pyramid / bframe-bias=0 / rc-lookahead=100 / lookahead-slices=5 / scenecut=40 / no-intra-refresh / ctu=32 / min-cu-size=8 / no-rect / no-amp / max-tu-size=16 / tu-inter-depth=1 / tu-intra-depth=1 / limit-tu=0 / rdoq-level=2 / dynamic-rd=0.00 / no-ssim-rd / signhide / no-tskip / nr-intra=0 / nr-inter=0 / no-constrained-intra / no-strong-intra-smoothing / max-merge=2 / limit-refs=3 / limit-modes / me=3 / subme=5 / merange=57 / temporal-mvp / weightp / no-weightb / no-analyze-src-pics / deblock=-3:0 / no-sao / no-sao-non-deblock / rd=4 / no-early-skip / rskip / no-fast-intra / no-tskip-fast / no-cu-lossless / no-b-intra / no-splitrd-skip / rdpenalty=0 / psy-rd=2.00 / psy-rdoq=6.00 / no-rd-refine / analysis-reuse-mode=0 / no-lossless / cbqpoffs=0 / crqpoffs=0 / rc=abr / bitrate=3333 / qcomp=0.90 / qpstep=4 / stats-write=0 / stats-read=2 / cplxblur=20.0 / qblur=0.5 / ipratio=1.40 / pbratio=1.30 / aq-mode=3 / aq-strength=0.90 / cutree / zone-count=0 / no-strict-cbr / qg-size=16 / no-rc-grain / qpmax=69 / qpmin=0 / no-const-vbv / sar=0 / overscan=0 / videoformat=5 / range=1 / colorprim=1 / transfer=1 / colormatrix=1 / chromaloc=0 / display-window=0 / max-cll=0,0 / min-luma=0 / max-luma=4095 / log2-max-poc-lsb=8 / vui-timing-info / vui-hrd-info / slices=1 / opt-qp-pps / opt-ref-list-length-pps / multi-pass-opt-rps / scenecut-bias=0.05 / no-opt-cu-delta-qp / aq-motion / no-hdr / no-hdr-opt / no-dhdr10-opt / analysis-reuse-level=9 / scale-factor=0 / refine-intra=0 / refine-inter=0 / refine-mv=0 / no-limit-sao / ctu-info=0
Default                                  : Yes
Forced                                   : No
Color range                              : Full
Color primaries                          : BT.709
Transfer characteristics                 : BT.709
Matrix coefficients                      : BT.709

Audio #1
ID                                       : 2
Format                                   : AAC
Format/Info                              : Advanced Audio Codec
Format profile                           : LC
Codec ID                                 : A_AAC
Duration                                 : 2 h 0 min
Bit rate                                 : 576 kb/s
Channel(s)                               : 8 channels
Channel positions                        : Front: L C R, Side: L R, Back: L R, LFE
Sampling rate                            : 48.0 kHz
Frame rate                               : 46.875 FPS (1024 SPF)
Compression mode                         : Lossy
Delay relative to video                  : 20 ms
Stream size                              : 489 MiB (12%)
Title                                    : English
Language                                 : English
Default                                  : Yes
Forced                                   : No

Audio #2
ID                                       : 3
Format                                   : AAC
Format/Info                              : Advanced Audio Codec
Format profile                           : LC
Codec ID                                 : A_AAC
Duration                                 : 2 h 0 min
Bit rate                                 : 119 kb/s
Channel(s)                               : 2 channels
Channel positions                        : Front: L R
Sampling rate                            : 48.0 kHz
Frame rate                               : 46.875 FPS (1024 SPF)
Compression mode                         : Lossy
Delay relative to video                  : 20 ms
Stream size                              : 103 MiB (2%)
Title                                    : English Commentary
Language                                 : English
Default                                  : No
Forced                                   : No

Audio #3
ID                                       : 4
Format                                   : AAC
Format/Info                              : Advanced Audio Codec
Format profile                           : LC
Codec ID                                 : A_AAC
Duration                                 : 2 h 0 min
Bit rate                                 : 366 kb/s
Channel(s)                               : 6 channels
Channel positions                        : Front: L C R, Side: L R, LFE
Sampling rate                            : 48.0 kHz
Frame rate                               : 46.875 FPS (1024 SPF)
Compression mode                         : Lossy
Delay relative to video                  : 20 ms
Stream size                              : 316 MiB (8%)
Title                                    : Spanish
Language                                 : Spanish
Default                                  : No
Forced                                   : No

Audio #4
ID                                       : 5
Format                                   : AAC
Format/Info                              : Advanced Audio Codec
Format profile                           : LC
Codec ID                                 : A_AAC
Duration                                 : 2 h 0 min
Bit rate                                 : 368 kb/s
Channel(s)                               : 6 channels
Channel positions                        : Front: L C R, Side: L R, LFE
Sampling rate                            : 48.0 kHz
Frame rate                               : 46.875 FPS (1024 SPF)
Compression mode                         : Lossy
Delay relative to video                  : 20 ms
Stream size                              : 318 MiB (8%)
Title                                    : French
Language                                 : French
Default                                  : No
Forced                                   : No

Text #1
ID                                       : 6
Format                                   : PGS
Muxing mode                              : zlib
Codec ID                                 : S_HDMV/PGS
Codec ID/Info                            : Picture based subtitle format used on BDs/HD-DVDs
Duration                                 : 2 h 0 min
Bit rate                                 : 35.0 kb/s
Count of elements                        : 3334
Stream size                              : 30.2 MiB (1%)
Title                                    : English
Language                                 : English
Default                                  : Yes
Forced                                   : No

Text #2
ID                                       : 7
Format                                   : PGS
Muxing mode                              : zlib
Codec ID                                 : S_HDMV/PGS
Codec ID/Info                            : Picture based subtitle format used on BDs/HD-DVDs
Duration                                 : 2 h 0 min
Bit rate                                 : 29.8 kb/s
Count of elements                        : 2886
Stream size                              : 25.7 MiB (1%)
Title                                    : Spanish
Language                                 : Spanish
Default                                  : No
Forced                                   : No

Text #3
ID                                       : 8
Format                                   : PGS
Muxing mode                              : zlib
Codec ID                                 : S_HDMV/PGS
Codec ID/Info                            : Picture based subtitle format used on BDs/HD-DVDs
Duration                                 : 2 h 0 min
Bit rate                                 : 30.5 kb/s
Count of elements                        : 2812
Stream size                              : 26.3 MiB (1%)
Title                                    : French
Language                                 : French
Default                                  : No
Forced                                   : No

Category:Movies > HEVC
Lang:English  English
Total Size:4.04 GB
Info Hash:82b80018f9a9d898f85d7b7f7dad7eb92ba4754d
Added By:Natty
Date Added:06-11-2017 21:05:51
Downloads:113

Download Torrent

Ratings:Not Yet Rated (Log in to rate it)


Tracker:
udp://tracker.opentrackr.org:1337/announce


File List: 


Comments

No comments still posted

Powered by 10 Hamsters v2-svn -|- Page Generated In 2.306862 secs.
-|- RSS Feed -|- Feed Info
Theme By: Nikkbu