Goal Setting for Success Annabelle Beckwith Premium Free PDF English Pages 96 (45 reviews) ‘Goal Setting for Success’ is a very practical book which takes you through the key stages and principles of setting and achieving your goals. Read more | Happyland 8 | Zetsumetsu Kigu Shoujo: Amazing Twins


Login
Username:
Password:
[Signup]
[Recover Account]


Browse Torrents

Poll


You must be logged in to view polls



Torrent Details For "Ghulam 1998 1080p Bluray 10bit x265 5.1 AAC HEVC Natty"

Ghulam 1998 1080p Bluray 10bit x265 5.1 AAC HEVC Natty

Download this torrent | Magnet Download
Health:
Seeds: 26
Leechers: 43
Completed: 24 
Last Checked: 11-11-2017 08:19:46
External Torrent
Update Stats


Watch-Free-HD     Download

Poster


iMDB
Imdb Picture Title: Ghulam
Year: 1998
Runtime: 162 minutes
Votes: 8805
Rating: 7.4/10
Language: Hindi
Country: India
All Genres: Action, Crime, Drama, Thriller
Plot Outline: Ghulam means a slave. Sidharth (Aamir Khan) is an amateur boxer who does not work, preferring to loaf about with friends. His older brother Jai (Rajit Kapoor) works with a gangster who ...
Director: Vikram Bhatt
Writing By: Anjum Rajabali,
Produced By: Mukesh Bhatt,
Music: Amar Haldipur Jatin Pandit Lalit Pandit
Cast:
Aamir Khan as Siddharth Marathe
Rani Mukerji as Alisha Mafatlal
Rajit Kapoor as Jai, Siddhartha's brother
Mita Vasisht as Siddharth's lawyer
Deepak Tijori as Charlie
Akshay Anand as Harihar Mafatlal
Bobby Sainy as
Sharat Saxena as Ronak Singh (Ronnie)
Dalip Tahil as Mr. Marathe
Raju Kher as Ashok


Watch-Free-HD     Download

Details
Name:Ghulam 1998 1080p Bluray 10bit x265 5.1 AAC HEVC Natty
Description:
Ghulam 1998 in 1080p, encoded with x265 (HEVC) and AAC 5.1 Hindi Audio with multiple subtitles!
Encoded using the time consuming Slow Preset with 2 pass, 10 bit color at 3002 kbps, from Untouched Bluray Source, for the highest quality possible.



PLEASE SEED IF YOU WANT ME TO UPLOAD MORE:Qpirate:

Quote:

RECOMMENDED PLAYER: POTPLAYER

Source: Untouched Bluray by DownloadHD

Screenshots












Encode Media Info:

Quote:

General
Complete name                            : Ghulam 1998 1080p Bluray 10bit x265 5.1 AAC HEVC Natty.mkv
Format                                   : Matroska
Format version                           : Version 4 / Version 2
File size                                : 3.95 GiB
Duration                                 : 2 h 42 min
Overall bit rate                         : 3 491 kb/s
Movie name                               : GHULAM
Encoded date                             : UTC 2017-10-09 07:08:02
Writing application                      : mkvmerge v15.0.0 ('Duel with the Devil') 64-bit
Writing library                          : libebml v1.3.5 + libmatroska v1.4.5
Cover                                    : Yes
Attachments                              : cover.jpg
Writing frontend                         : Natty

Video
ID                                       : 1
Format                                   : HEVC
Format/Info                              : High Efficiency Video Coding
Format profile                           : Main [email protected]@Main
Codec ID                                 : V_MPEGH/ISO/HEVC
Duration                                 : 2 h 42 min
Bit rate                                 : 3 002 kb/s
Width                                    : 1 920 pixels
Height                                   : 820 pixels
Display aspect ratio                     : 2.35:1
Frame rate mode                          : Constant
Frame rate                               : 24.000 FPS
Color space                              : YUV
Chroma subsampling                       : 4:2:0
Bit depth                                : 10 bits
Bits/(Pixel*Frame)                       : 0.079
Stream size                              : 3.40 GiB (86%)
Writing library                          : x265 2.5+20-0967d0add97e:[Windows][MSVC 1911][64 bit] 10bit
Encoding settings                        : cpuid=1173503 / frame-threads=2 / numa-pools=4 / wpp / no-pmode / no-pme / no-psnr / no-ssim / log-level=2 / csvfn=D:\Encoding\Ghulam\GHULAM_t01_new.csv / csv-log-level=0 / input-csp=1 / input-res=1920x820 / interlace=0 / total-frames=233455 / level-idc=0 / high-tier=1 / uhd-bd=0 / ref=6 / no-allow-non-conformance / no-repeat-headers / annexb / no-aud / no-hrd / info / hash=0 / no-temporal-layers / open-gop / min-keyint=24 / keyint=400 / bframes=8 / b-adapt=2 / b-pyramid / bframe-bias=0 / rc-lookahead=100 / lookahead-slices=5 / scenecut=40 / no-intra-refresh / ctu=32 / min-cu-size=8 / no-rect / no-amp / max-tu-size=16 / tu-inter-depth=1 / tu-intra-depth=1 / limit-tu=0 / rdoq-level=2 / dynamic-rd=0.00 / no-ssim-rd / signhide / no-tskip / nr-intra=0 / nr-inter=0 / no-constrained-intra / no-strong-intra-smoothing / max-merge=2 / limit-refs=3 / limit-modes / me=3 / subme=5 / merange=57 / temporal-mvp / weightp / no-weightb / no-analyze-src-pics / deblock=-3:0 / no-sao / no-sao-non-deblock / rd=4 / no-early-skip / rskip / no-fast-intra / no-tskip-fast / no-cu-lossless / no-b-intra / no-splitrd-skip / rdpenalty=0 / psy-rd=2.00 / psy-rdoq=6.00 / no-rd-refine / analysis-reuse-mode=0 / no-lossless / cbqpoffs=0 / crqpoffs=0 / rc=abr / bitrate=3001 / qcomp=0.90 / qpstep=4 / stats-write=0 / stats-read=2 / cplxblur=20.0 / qblur=0.5 / ipratio=1.40 / pbratio=1.30 / aq-mode=3 / aq-strength=0.90 / cutree / zone-count=0 / no-strict-cbr / qg-size=16 / no-rc-grain / qpmax=69 / qpmin=0 / no-const-vbv / sar=0 / overscan=0 / videoformat=5 / range=1 / colorprim=1 / transfer=1 / colormatrix=1 / chromaloc=0 / display-window=0 / max-cll=0,0 / min-luma=0 / max-luma=1023 / log2-max-poc-lsb=8 / vui-timing-info / vui-hrd-info / slices=1 / opt-qp-pps / opt-ref-list-length-pps / multi-pass-opt-rps / scenecut-bias=0.05 / no-opt-cu-delta-qp / aq-motion / no-hdr / no-hdr-opt / no-dhdr10-opt / analysis-reuse-level=9 / scale-factor=0 / refine-intra=0 / refine-inter=0 / refine-mv=0 / no-limit-sao / ctu-info=0
Default                                  : Yes
Forced                                   : No
Color range                              : Full
Color primaries                          : BT.709
Transfer characteristics                 : BT.709
Matrix coefficients                      : BT.709

Audio
ID                                       : 2
Format                                   : AAC
Format/Info                              : Advanced Audio Codec
Format profile                           : LC
Codec ID                                 : A_AAC
Duration                                 : 2 h 42 min
Bit rate                                 : 480 kb/s
Channel(s)                               : 6 channels
Channel positions                        : Front: L C R, Side: L R, LFE
Sampling rate                            : 48.0 kHz
Frame rate                               : 46.875 FPS (1024 SPF)
Compression mode                         : Lossy
Delay relative to video                  : 20 ms
Stream size                              : 557 MiB (14%)
Language                                 : Hindi
Default                                  : No
Forced                                   : No

Text
ID                                       : 3
Format                                   : PGS
Muxing mode                              : zlib
Codec ID                                 : S_HDMV/PGS
Codec ID/Info                            : Picture based subtitle format used on BDs/HD-DVDs
Duration                                 : 2 h 39 min
Bit rate                                 : 15.1 kb/s
Count of elements                        : 2422
Stream size                              : 17.3 MiB (0%)
Language                                 : English
Default                                  : No
Forced                                   : No

Category:Movies > HEVC
Lang:Hindi
Total Size:3.97 GB
Info Hash:39f5a334cbb9a3d8dff41db9b9205c7536c41481
Added By:Natty
Date Added:10-11-2017 21:24:42
Downloads:174

Download Torrent

Ratings:Not Yet Rated (Log in to rate it)


Tracker:
udp://tracker.opentrackr.org:1337/announce


File List: 


Comments

No comments still posted

Powered by 10 Hamsters v2-svn -|- Page Generated In 5.351751 secs.
-|- RSS Feed -|- Feed Info
Theme By: Nikkbu