Krishnaben Khakhrawala | Trollhunters S01E06 WEBRip Most Releases | Adventures of Little El Cid


Login
Username:
Password:
[Signup]
[Recover Account]


Browse Torrents

Poll


You must be logged in to view polls



Torrent Details For "Maine Pyar Kiya 1989 1080p Bluray 12bit x265 5.1 AAC HEVC Natty"

Maine Pyar Kiya 1989 1080p Bluray 12bit x265 5.1 AAC HEVC Natty

Download this torrent | Magnet Download
Health:
Seeds: 0
Leechers: 2
Completed: 92 
Last Checked: 02-01-2018 21:22:50
External Torrent
Update Stats


Watch-Free-HD     Download

Poster


iMDB
Imdb Picture Title: Maine Pyar Kiya
Year: 1989
Runtime: 192 minutes
Votes: 8242
Rating: 7.4/10
Language: Hindi
Country: India
All Genres: Drama, Family, Musical, Romance
Plot Outline: Karan (Alok Nath) lives in a small house with his only daughter, Suman (Bhagyashree). He decides to travel overseas in Dubai, in the Persian Gulf, so that he can accumulate enough wealth to...
Director: Sooraj R. Barjatya
Writing By: S.M. Ahale,Sooraj R. Barjatya,Sooraj R. Barjatya,
Produced By: Ajit Kumar Barjatya,Kamal Kumar Barjatya,Rajkumar Barjatya,Tarachand Barjatya,
Music: Vijay Patil
Cast:
Salman Khan as Prem Choudhary
Bhagyashree as Suman
Alok Nath as Karan
Rajeev Verma as Kishen Kumar Choudhary
Reema Lagoo as Kaushalya Choudhary
Ajit Vachani as Ranjeet
Harish Patel as Rahim chacha
Deep Dhillon as Laal Miyan
Huma Khan as Gulabiya (Milk delivery maid)
Handsome as 'Handsome' Pigeon


Watch-Free-HD     Download

Details
Name:Maine Pyar Kiya 1989 1080p Bluray 12bit x265 5.1 AAC HEVC Natty
Description:
Maine Pyar Kiya 1989 in 1080p, encoded with x265 (HEVC) and 5.1 AAC Hindi Audio with multiple subtitles!
Encoded using the time consuming Slow Preset with 2 pass, 12 bit color at 2501 kbps, from Untouched Bluray Source, for the highest quality possible.



PLEASE SEED IF YOU WANT ME TO UPLOAD MORE:Qpirate:

Quote:

RECOMMENDED PLAYER: POTPLAYER

Source: Untouched Bluray by DownloadHD

Screenshots







Encode Media Info:

Quote:

General
Complete name                            : Maine Pyar Kiya 1989 1080p Bluray 12bit x265 5.1 AAC HEVC Natty.mkv
Format                                   : Matroska
Format version                           : Version 4 / Version 2
File size                                : 3.87 GiB
Duration                                 : 3 h 12 min
Overall bit rate                         : 2 884 kb/s
Movie name                               : MPK
Encoded date                             : UTC 2017-11-06 06:55:23
Writing application                      : mkvmerge v17.0.0 ('Be Ur Friend') 64-bit
Writing library                          : libebml v1.3.5 + libmatroska v1.4.8
Cover                                    : Yes
Attachments                              : cover.jpg
Writing frontend                         : Natty

Video
ID                                       : 1
Format                                   : HEVC
Format/Info                              : High Efficiency Video Coding
Format profile                           : @[email protected]
Codec ID                                 : V_MPEGH/ISO/HEVC
Duration                                 : 3 h 12 min
Bit rate                                 : 2 502 kb/s
Width                                    : 1 920 pixels
Height                                   : 800 pixels
Display aspect ratio                     : 2.40:1
Frame rate mode                          : Constant
Frame rate                               : 24.000 FPS
Color space                              : YUV
Chroma subsampling                       : 4:2:0
Bit depth                                : 12 bits
Bits/(Pixel*Frame)                       : 0.068
Stream size                              : 3.36 GiB (87%)
Writing library                          : x265 2.5+31-df2de6ea407d:[Windows][MSVC 1911][64 bit] 12bit
Encoding settings                        : cpuid=1173503 / frame-threads=2 / numa-pools=4 / wpp / no-pmode / no-pme / no-psnr / no-ssim / log-level=2 / csvfn=D:\Encoding\Maine / Pyar / Kiya\MPK_t01_new.csv / csv-log-level=0 / input-csp=1 / input-res=1920x800 / interlace=0 / total-frames=276892 / level-idc=0 / high-tier=1 / uhd-bd=0 / ref=6 / no-allow-non-conformance / no-repeat-headers / annexb / no-aud / no-hrd / info / hash=0 / no-temporal-layers / open-gop / min-keyint=24 / keyint=400 / bframes=8 / b-adapt=2 / b-pyramid / bframe-bias=0 / rc-lookahead=100 / lookahead-slices=5 / scenecut=40 / no-intra-refresh / ctu=32 / min-cu-size=8 / no-rect / no-amp / max-tu-size=16 / tu-inter-depth=1 / tu-intra-depth=1 / limit-tu=0 / rdoq-level=2 / dynamic-rd=0.00 / no-ssim-rd / signhide / no-tskip / nr-intra=0 / nr-inter=0 / no-constrained-intra / no-strong-intra-smoothing / max-merge=2 / limit-refs=3 / limit-modes / me=3 / subme=5 / merange=57 / temporal-mvp / weightp / no-weightb / no-analyze-src-pics / deblock=-3:0 / no-sao / no-sao-non-deblock / rd=4 / no-early-skip / rskip / no-fast-intra / no-tskip-fast / no-cu-lossless / no-b-intra / no-splitrd-skip / rdpenalty=0 / psy-rd=2.00 / psy-rdoq=6.00 / no-rd-refine / analysis-reuse-mode=0 / no-lossless / cbqpoffs=0 / crqpoffs=0 / rc=abr / bitrate=2501 / qcomp=0.90 / qpstep=4 / stats-write=0 / stats-read=2 / cplxblur=20.0 / qblur=0.5 / ipratio=1.40 / pbratio=1.30 / aq-mode=3 / aq-strength=0.90 / cutree / zone-count=0 / no-strict-cbr / qg-size=16 / no-rc-grain / qpmax=69 / qpmin=0 / no-const-vbv / sar=0 / overscan=0 / videoformat=5 / range=1 / colorprim=1 / transfer=1 / colormatrix=1 / chromaloc=0 / display-window=0 / max-cll=0,0 / min-luma=0 / max-luma=4095 / log2-max-poc-lsb=8 / vui-timing-info / vui-hrd-info / slices=1 / opt-qp-pps / opt-ref-list-length-pps / multi-pass-opt-rps / scenecut-bias=0.05 / no-opt-cu-delta-qp / aq-motion / no-hdr / no-hdr-opt / no-dhdr10-opt / analysis-reuse-level=9 / scale-factor=0 / refine-intra=0 / refine-inter=0 / refine-mv=0 / no-limit-sao / ctu-info=0
Default                                  : Yes
Forced                                   : No
Color range                              : Full
Color primaries                          : BT.709
Transfer characteristics                 : BT.709
Matrix coefficients                      : BT.709

Audio
ID                                       : 2
Format                                   : AAC
Format/Info                              : Advanced Audio Codec
Format profile                           : LC
Codec ID                                 : A_AAC
Duration                                 : 3 h 12 min
Bit rate                                 : 367 kb/s
Channel(s)                               : 6 channels
Channel positions                        : Front: L C R, Side: L R, LFE
Sampling rate                            : 48.0 kHz
Frame rate                               : 46.875 FPS (1024 SPF)
Compression mode                         : Lossy
Delay relative to video                  : 20 ms
Stream size                              : 504 MiB (13%)
Language                                 : Hindi
Default                                  : No
Forced                                   : No

Text
ID                                       : 3
Format                                   : PGS
Muxing mode                              : zlib
Codec ID                                 : S_HDMV/PGS
Codec ID/Info                            : Picture based subtitle format used on BDs/HD-DVDs
Duration                                 : 3 h 11 min
Bit rate                                 : 21.4 kb/s
Count of elements                        : 3688
Stream size                              : 29.3 MiB (1%)
Language                                 : English
Default                                  : No
Forced                                   : No

Category:Movies > HEVC
Lang:Hindi
Total Size:3.88 GB
Info Hash:81f56305bedd2c164b3033091c6e4a80e6395a95
Added By:Natty
Date Added:19-11-2017 19:36:17
Downloads:191

Download Torrent

Ratings:Not Yet Rated (Log in to rate it)


Tracker:
udp://tracker.opentrackr.org:1337/announce


File List: 


Comments

No comments still posted

Powered by 10 Hamsters v2-svn -|- Page Generated In 2.389690 secs.
-|- RSS Feed -|- Feed Info
Theme By: Nikkbu