saison 1, épisode 2 A Stray Howl | Convict (2014) English 300MB Download | Face Off 12


Login
Username:
Password:
[Signup]
[Recover Account]


Browse Torrents

Poll


You must be logged in to view polls



Torrent Details For " [RnC] Raja The Great (2017) Telugu True WEB-HD - 1080p - AVC - AAC - 22GB - ESub"

[RnC] Raja The Great (2017) Telugu True WEB-HD - 1080p - AVC - AAC - 22GB - ESub

Download this torrent | Magnet Download
Health:
Seeds: 0
Leechers: 0
Completed:
Last Checked: 25-11-2017 03:52:10
External Torrent
Update Stats


Poster


iMDB
Imdb Picture Title: Raja The Great
Year: 2017
Runtime: 149 minutes
Votes: 419
Rating: 7.5/10
Language: Telugu
Country: India
All Genres: Action
Plot Outline: Raja who is born blind but has extraordinary senses and is a trained skilfull fighter is assigned to rescue a girl.
Director: Anil Ravipudi

Cast:
Raashi Khanna as
Mehreen Pirzada as
Ravi Teja as


Watch-Free-HD     Download

Details
Name: [RnC] Raja The Great (2017) Telugu True WEB-HD - 1080p - AVC - AAC - 22GB - ESub
Description:
Raja The Great (2017) Telugu True WEB-HD - 1080p - AVC - AAC - 22GB - ESub




Credits to TamilMV

-RnC

General
Complete name                            : Raja The Great (2017) Telugu True WEB-HD - 1080p - AVC - AAC - 22GB.mp4
Format                                   : MPEG-4
Format profile                           : Base Media
Codec ID                                 : isom
File size                                : 22.6 GiB
Duration                                 : 2h 30mn
Overall bit rate                         : 21.5 Mbps
Writing application                      : Lavf57.82.101

Video
ID                                       : 1
Format                                   : AVC
Format/Info                              : Advanced Video Codec
Format profile                           : [email protected]
Format settings, CABAC                   : No
Format settings, ReFrames                : 2 frames
Codec ID                                 : avc1
Codec ID/Info                            : Advanced Video Coding
Duration                                 : 2h 30mn
Bit rate                                 : 20.0 Mbps
Width                                    : 1 920 pixels
Height                                   : 1 080 pixels
Display aspect ratio                     : 16:9
Frame rate mode                          : Constant
Frame rate                               : 60.000 fps
Color space                              : YUV
Chroma subsampling                       : 4:2:0
Bit depth                                : 8 bits
Scan type                                : Progressive
Bits/(Pixel*Frame)                       : 0.161
Stream size                              : 21.0 GiB (93%)
Language                                 : English
Color primaries                          : BT.709
Transfer characteristics                 : BT.709
Matrix coefficients                      : BT.709

Audio
ID                                       : 2
Format                                   : PCM
Format settings, Endianness              : Little
Format settings, Sign                    : Signed
Codec ID                                 : sowt
Duration                                 : 2h 30mn
Bit rate mode                            : Constant
Bit rate                                 : 1 536 Kbps
Channel(s)                               : 2 channels
Sampling rate                            : 48.0 KHz
Bit depth                                : 16 bits
Stream size                              : 1.61 GiB (7%)
Language                                 : English
Category:Movies > Telugu
Lang:Telugu
Total Size:22.64 GB
Info Hash:039d1f82dc3ba46c0a0d6f10c4c81571d9c2682e
Added By:iDownload
Date Added:25-11-2017 03:52:02
Downloads:101


Ratings:Not Yet Rated (Log in to rate it)


Tracker:
udp://tracker.leechers-paradise.org:6969


File List: 


Comments

No comments still posted

Powered by 10 Hamsters v2-svn -|- Page Generated In 0.238983 secs.
-|- RSS Feed -|- Feed Info
Theme By: Nikkbu