Amateur Teen Brunette Webcam Free Amateur Brunette Porn Video More Cam | #Tlcharger | The Lost Room


Login
Username:
Password:
[Signup]
[Recover Account]


Browse Torrents

Poll


You must be logged in to view polls



Torrent Details For "Misery 1990 REMASTERED1080p BRRip x264 DTS 5.1 ESub-Download"

Misery 1990 REMASTERED1080p BRRip x264 DTS 5.1 ESub-Download

Download this torrent | Magnet Download
Health:
Seeds: 0
Leechers: 0
Completed:
Last Checked: 06-12-2017 06:39:42
External Torrent
Update Stats


Poster


iMDB
Imdb Picture Title: Misery
Year: 1990
Runtime: 107 minutes
Votes: 149478
Rating: 7.8/10
Language: English
Country: USA
All Genres: Crime, Drama, Thriller
Plot Outline: After a famous author is rescued from a car crash by a fan of his novels, he comes to realize that the care he is receiving is only the beginning of a nightmare of captivity and abuse.
Tagline: This Christmas there will be... Misery.
Director: Rob Reiner
Writing By: Stephen King,William Goldman,
Produced By: Steve Nicolaides,Rob Reiner,Andrew Scheinman,Jeffrey Stott,
Music: Marc Shaiman
Cast:
James Caan as Paul Sheldon
Kathy Bates as Annie Wilkes
Richard Farnsworth as Buster
Frances Sternhagen as Virginia
Lauren Bacall as Marcia Sindell
Graham Jarvis as Libby
Jerry Potter as Pete
Thomas Brunelle as Anchorman
June Christopher as Anchorwoman
Julie Payne as Reporter #1


Watch-Free-HD     Download

Details
Name:Misery 1990 REMASTERED1080p BRRip x264 DTS 5.1 ESub-Download
Description:
Misery 1990 REMASTERED1080p BRRip x264 DTS 5.1 ESub-Download


Format                                   : Matroska
Format version                           : Version 4 / Version 2
File size                                : 2.83 GiB
Duration                                 : 1 h 47 min
Overall bit rate                         : 3 768 kb/s
Movie name                               : Misery 1992 REMASTERED - Download


Video
ID                                       : 1
Format                                   : AVC
Format/Info                              : Advanced Video Codec
Format profile                           : [email protected]
Format settings                          : CABAC / 4 Ref Frames
Format settings, CABAC                   : Yes
Format settings, RefFrames               : 4 frames
Codec ID                                 : V_MPEG4/ISO/AVC
Duration                                 : 1 h 47 min
Bit rate                                 : 3 000 kb/s
Width                                    : 1 920 pixels
Height                                   : 1 040 pixels
Display aspect ratio                     : 1.85:1
Frame rate mode                          : Constant
Frame rate                               : 23.976 (24000/1001) FPS
Language                                 : English
Default                                  : Yes
Forced                                   : No

Audio
ID                                       : 2
Format                                   : DTS
Format/Info                              : Digital Theater Systems
Codec ID                                 : A_DTS
Duration                                 : 1 h 47 min
Bit rate mode                            : Constant
Bit rate                                 : 768 kb/s
Channel(s)                               : 6 channels
Channel positions                        : Front: L C R, Side: L R, LFE
Sampling rate                            : 48.0 kHz
Frame rate                               : 93.750 FPS (512 SPF)
Bit depth                                : 24 bits
Compression mode                         : Lossy
Stream size                              : 590 MiB (20%)
Language                                 : English
Default                                  : Yes
Forced                                   : No

Text #1
ID                                       : 3
Format                                   : UTF-8
Codec ID                                 : S_TEXT/UTF8
Codec ID/Info                            : UTF-8 Plain Text
Duration                                 : 1 h 44 min
Bit rate                                 : 47 b/s
Count of elements                        : 1287
Stream size                              : 36.3 KiB (0%)
Language                                 : English
Default                                  : No
Forced                                   : No

Text #2
ID                                       : 4
Format                                   : UTF-8
Codec ID                                 : S_TEXT/UTF8
Codec ID/Info                            : UTF-8 Plain Text
Duration                                 : 1 h 46 min
Bit rate                                 : 49 b/s
Count of elements                        : 1437
Stream size                              : 38.9 KiB (0%)
Title                                    : SDH
Language                                 : English
Default                                  : No
Forced                                   : No

Menu
00:00:00.000                             : en:00:00:00.000
00:07:03.256                             : en:00:07:03.256
00:19:05.978                             : en:00:19:05.978
00:32:16.268                             : en:00:32:16.268
00:41:27.318                             : en:00:41:27.318
00:49:52.781                             : en:00:49:52.781
00:57:20.062                             : en:00:57:20.062
01:05:06.778                             : en:01:05:06.778
01:11:26.073                             : en:01:11:26.073
01:23:05.731                             : en:01:23:05.731
01:36:10.723                             : en:01:36:10.723
01:44:14.832                             : en:01:44:14.832

           
Category:Movies > 1080P Bluray
Lang:English  English
Total Size:2.83 GB
Info Hash:9bf15c18779c08d25659ca2b4caa304c8414676e
Added By:Download
Date Added:06-12-2017 06:39:42
Downloads:87


Ratings:Not Yet Rated (Log in to rate it)


Tracker:
udp://tracker.coppersurfer.tk:6969/announce


File List: 


Comments

No comments still posted

Powered by 10 Hamsters v2-svn -|- Page Generated In 0.893805 secs.
-|- RSS Feed -|- Feed Info
Theme By: Nikkbu