You, Me and the Apoca.. | Kingyo Club | Ozzy (2016)


Login
Username:
Password:
[Signup]
[Recover Account]


Browse Torrents

Poll


You must be logged in to view polls



Torrent Details For "Dunkirk 2017 1080p BluRay DD 5.1 x264 ESub"

Dunkirk 2017 1080p BluRay DD 5.1 x264 ESub

Download this torrent | Magnet Download
Health:
Seeds: 111
Leechers: 439
Completed: 122 
Last Checked: 06-12-2017 09:28:41
External Torrent
Update Stats


Poster
No poster


Watch-Free-HD     Download

Details
Name:Dunkirk 2017 1080p BluRay DD 5.1 x264 ESub
Description:

 

General
Format                                   : Matroska
Format version                           : Version 4 / Version 2
File size                                : 2.67 GiB
Duration                                 : 1 h 46 min
Overall bit rate                         : 3 587 kb/s

Video
ID                                       : 1
Format                                   : AVC
Format/Info                              : Advanced Video Codec
Format profile                           : [email protected]
Format settings                          : CABAC / 4 Ref Frames
Format settings, CABAC                   : Yes
Format settings, RefFrames               : 4 frames
Codec ID                                 : V_MPEG4/ISO/AVC
Duration                                 : 1 h 46 min
Bit rate                                 : 3 326 kb/s
Nominal bit rate                         : 3 500 kb/s
Width                                    : 1 920 pixels
Height                                   : 1 080 pixels
Display aspect ratio                     : 16:9
Frame rate mode                          : Constant
Frame rate                               : 23.976 (23976/1000) FPS
Color space                              : YUV
Chroma subsampling                       : 4:2:0
Bit depth                                : 8 bits
Scan type                                : Progressive
Bits/(Pixel*Frame)                       : 0.067
Stream size                              : 2.48 GiB (93%)
Writing library                          : x264 core 148 r2643 5c65704
Default                                  : Yes
Forced                                   : No

Audio
ID                                       : 2
Format                                   : AC-3
Format/Info                              : Audio Coding 3
Format settings, Endianness              : Big
Codec ID                                 : A_AC3
Duration                                 : 1 h 46 min
Bit rate mode                            : Constant
Bit rate                                 : 256 kb/s
Channel(s)                               : 6 channels
Channel positions                        : Front: L C R, Side: L R, LFE
Sampling rate                            : 48.0 kHz
Frame rate                               : 31.250 FPS (1536 SPF)
Bit depth                                : 16 bits
Compression mode                         : Lossy
Stream size                              : 195 MiB (7%)
Service kind                             : Complete Main
Default                                  : Yes
Forced                                   : No

Text
ID                                       : 3
Format                                   : VobSub
Muxing mode                              : zlib
Codec ID                                 : S_VOBSUB
Codec ID/Info                            : Picture based subtitle format used on DVDs
Duration                                 : 1 h 45 min
Bit rate                                 : 3 054 b/s
Count of elements                        : 859
Stream size                              : 2.30 MiB (0%)
Language                                 : English
Default                                  : Yes
Forced                                   : No


 
 
 
 
 
 
 
 
 

Category:Movies > 1080P Bluray
Lang:English  English
Total Size:2.67 GB
Info Hash:bc80b467a73e9f0d653244cb8e02ee830f2fd5fb
Added By:Freaky
Date Added:06-12-2017 07:45:06
Downloads:101


Ratings:Not Yet Rated (Log in to rate it)


Tracker:
http://ipv4.tracker.harry.lu/announce

This Torrent also has backup trackers
URLSeedersLeechersCompleted
http://ipv4.tracker.harry.lu/announce114921
http://ipv4.tracker.harry.lu:80/announce114921
http://tracker.electro-torrent.pl/announce9380
http://tracker.electro-torrent.pl:80/announce9380
http://retracker.mgts.by:80/announce123517
http://pt.lax.mx:80/announce120
http://tracker.torrentyorg.pl:80/announce9360
http://163.172.180.68/announce114921
http://82.209.230.66/announce123517
http://107.174.238.55:80/announce11365
http://t.nyaatracker.com/announce000
http://t.nyaatracker.com:80/announce110


File List: 


Comments

No comments still posted

Powered by 10 Hamsters v2-svn -|- Page Generated In 0.035108 secs.
-|- RSS Feed -|- Feed Info
Theme By: Nikkbu