Animation | Galaxy Goof-Ups | Dracano.2013.720p.BluRa..


Login
Username:
Password:
[Signup]
[Recover Account]


Browse Torrents

Poll


You must be logged in to view polls



Torrent Details For "Break Night 2017 1080p BluRay DD 5.1 x264"

Break Night 2017 1080p BluRay DD 5.1 x264

Download this torrent | Magnet Download
Health:
Seeds: 204
Leechers: 294
Completed: 165 
Last Checked: 12-01-2018 18:15:18
External Torrent
Update Stats


Watch-Free-HD     Download

Poster
No poster


Watch-Free-HD     Download

Details
Name:Break Night 2017 1080p BluRay DD 5.1 x264
Description:

 

General
Format version              : Version 4 / Version 2
File size                   : 1.30 GiB
Duration                    : 1 h 37 min
Overall bit rate            : 1 917 kb/s

Video
ID                          : 1
Format                      : AVC
Format/Info                 : Advanced Video Codec
Format profile              : [email protected]
Format settings             : CABAC / 4 Ref Frames
Format settings, CABAC      : Yes
Format settings, ReFrames   : 4 frames
Codec ID                    : V_MPEG4/ISO/AVC
Duration                    : 1 h 37 min
Bit rate                    : 1 700 kb/s
Width                       : 1 920 pixels
Height                      : 816 pixels
Display aspect ratio        : 2.35:1
Frame rate mode             : Constant
Frame rate                  : 23.976 (24000/1001) FPS
Color space                 : YUV
Chroma subsampling          : 4:2:0
Bit depth                   : 8 bits
Scan type                   : Progressive
Bits/(Pixel*Frame)          : 0.045
Stream size                 : 1.13 GiB (87%)
Writing library             : x264 core 148 r2708 86b7198
Default                     : Yes
Forced                      : No

Audio
ID                          : 2
Format                      : AC-3
Format/Info                 : Audio Coding 3
Codec ID                    : A_AC3
Duration                    : 1 h 37 min
Bit rate mode               : Constant
Bit rate                    : 256 kb/s
Channel(s)                  : 6 channels
Channel positions           : Front: L C R, Side: L R, LFE
Sampling rate               : 48.0 kHz
Frame rate                  : 31.250 FPS (1536 SPF)
Bit depth                   : 16 bits
Compression mode            : Lossy
Stream size                 : 178 MiB (13%)
Language                    : English
Service kind                : Complete Main
Default                     : Yes
Forced                      : No



 
 
 
 
 
 

Category:Movies > 1080P Bluray
Lang:English  English
Total Size:1.30 GB
Info Hash:dd9d341570c36e603de2f4ef22cee758680d5dd2
Added By:Freaky
Date Added:12-01-2018 12:38:23
Downloads:64

Download Torrent

Ratings:Not Yet Rated (Log in to rate it)


Tracker:
http://ipv4.tracker.harry.lu/announce

This Torrent also has backup trackers
URLSeedersLeechersCompleted
http://ipv4.tracker.harry.lu/announce203329
http://ipv4.tracker.harry.lu:80/announce203329
http://open.kickasstracker.com/announce23310
http://open.kickasstracker.com:443/announce23310
http://82.209.230.66/announce000
http://163.172.180.68/announce203329


File List: 


Comments

No comments still posted

Powered by 10 Hamsters v2-svn -|- Page Generated In 0.004107 secs.
-|- RSS Feed -|- Feed Info
Theme By: Nikkbu