Download | G-Eazy, A$AP Rocky, Cardi B, French Montana, Juicy J, Belly - No Limit REMIX (TIDAL 1080p) | Psycho Pass


Login
Username:
Password:
[Signup]
[Recover Account]


Browse Torrents

Poll


You must be logged in to view polls



Torrent Details For "The Polka King 2017 720p WEBRip x264 AAC- Download"

The Polka King 2017 720p WEBRip x264 AAC- Download

Download this torrent | Magnet Download
Health:
Seeds: 200
Leechers: 85
Completed: 584 
Last Checked: 13-01-2018 05:18:25
External Torrent
Update Stats


Watch-Free-HD     Download

Poster


iMDB
Imdb Picture Title: The Polka King
Year: 2017
Runtime: 95 minutes
Votes: 147
Rating: 5.6/10
Language: English
Country: USA
All Genres: Biography, Comedy, Drama
Plot Outline: Local Pennsylvania polka legend Jan Lewan develops a plan to get rich that shocks his fans and lands him in jail.
Tagline: The greatest scandal in polka history.
Director: Maya Forbes
Wallace Wolodarsky
Writing By: Maya Forbes,Wallace Wolodarsky,
Produced By: Jack Black,Joshua Brown,Stuart Cornfeld,Connor Flanagan,Erika Hampson,Monica Levinson,Chris Mangano,Priyanka Mattoo,John Mikulak,David Permut,Joey Poach,Shivani Rawat,Ben Stiller,
Music: Theodore Shapiro
Cast:
Jack Black as Jan Lewan
Jenny Slate as Marla
Vanessa Bayer as
Jason Schwartzman as
Jacki Weaver as
J.B. Smoove as
Willie Garson as
Kati Salowsky as Connie Klopski
Robert Capron as David Lewan
Juani Feliz as Actress
Trailers:
Official Trailer


Watch-Free-HD     Download

Details
Name:The Polka King 2017 720p WEBRip x264 AAC- Download
Description:
The Polka King 2017 720p WEBRip x264 AAC- Download

Source:FCK
Format                      : Matroska
Format version              : Version 4 / Version 2
File size                   : 894 MiB
Duration                    : 1 h 34 min
Overall bit rate            : 1 329 kb/s
Movie name                  : The.Polka.King.2017- Download


Video
ID                          : 1
Format                      : AVC
Format/Info                 : Advanced Video Codec
Format profile              : [email protected]
Format settings, CABAC      : Yes
Format settings, RefFrames  : 8 frames
Codec ID                    : V_MPEG4/ISO/AVC
Duration                    : 1 h 34 min
Bit rate                    : 1 200 kb/s
Width                       : 1 280 pixels
Height                      : 536 pixels
Display aspect ratio        : 2.40:1
Frame rate mode             : Constant
Frame rate                  : 23.976 (24000/1001) FPS


Audio
ID                          : 2
Format                      : AAC
Format/Info                 : Advanced Audio Codec
Format profile              : LC
Codec ID                    : A_AAC
Duration                    : 1 h 34 min
Bit rate                    : 127 kb/s
Channel(s)                  : 2 channels
Channel positions           : Front: L R
Sampling rate               : 48.0 kHz
Frame rate                  : 46.875 FPS (1024 SPF)
Compression mode            : Lossy
Delay relative to video     : -21 ms
Stream size                 : 85.4 MiB (10%)
Title                       : Stereo
Language                    : English
Default                     : Yes
Forced                      : No

Text
ID                          : 3
Format                      : UTF-8
Codec ID                    : S_TEXT/UTF8
Codec ID/Info               : UTF-8 Plain Text
Duration                    : 1 h 31 min
Bit rate                    : 86 b/s
Count of elements           : 1600
Stream size                 : 57.7 KiB (0%)
Title                       : English
Language                    : English
Default                     : Yes
Forced                      : No

           
Category:Movies > HDRips
Lang:English  English
Total Size:893.76 MB
Info Hash:bfaedf673f0ab25d78e9fd6f1a5c5e44f00deb76
Added By:Download
Date Added:12-01-2018 17:56:23
Downloads:76

Download Torrent

Ratings:Not Yet Rated (Log in to rate it)


Tracker:
udp://tracker.coppersurfer.tk:6969/announce


File List: 


Comments

No comments still posted

Powered by 10 Hamsters v2-svn -|- Page Generated In 1.039020 secs.
-|- RSS Feed -|- Feed Info
Theme By: Nikkbu