Cut Shoot Kill | Passion - Worthy of Your Name (Live) | Young Hungry


Login
Username:
Password:
[Signup]
[Recover Account]


Browse Torrents

Poll


You must be logged in to view polls



Torrent Details For "Suhaag (1994) Hindi 480p HDRip X264 @ Filmiwar"

Suhaag (1994) Hindi 480p HDRip X264 @ Filmiwar

Download this torrent | Magnet Download
Health:
Seeds: 13
Leechers: 21
Completed: 21 
Last Checked: 18-01-2018 05:08:39
External Torrent
Update Stats


Watch-Free-HD     Download

Poster


iMDB
Imdb Picture Title: Suhaag
Year: 1994
Runtime: 145 minutes
Votes: 1316
Rating: 6.0/10
Language: Hindi
Country: India
All Genres: Action, Drama, Romance
Plot Outline: Collegian Ajay Sharma was born on 2nd April 1968 and lives in Bombay with his widowed mom, Asha. He is friendly with fellow-collegian, the wealthy Raj Sinha, and both often end up getting ...
Director: Sandesh Kohli
Writing By: Honey Irani,Tanveer Khan,
Produced By: Balraj Irani,Anil Sharma,
Music: Deepak Anandji Anand Chitragupth Milind Chitragupth
Plot:

Collegian Ajay Sharma was born on 2nd April 1968 and lives in Bombay with his widowed mom, Asha. He is friendly with fellow-collegian, the wealthy Raj Sinha, and both often end up getting beat-up by goons and Madhu (Raj's girlfriend) respectively. After they graduate from college, Raj's maternal uncle asks Ajay to bring his birth certificate so that he could make his passport and find work for him in a department store in Canada. Ajay goes home to look for his birth certificate, but is unable to locate. His mother makes a show of helping him, but instead tears a document and tosses it outside. Ajay puts the document together and finds out that his real name is Ajay Malhotra, his father, Dr. Ravi Malhotra, is still alive, serving a life sentence in prison for killing and stealing a patient's organs. Ajay questions his mother and finds out that his dad was framed by the hospital owner, Rai Bahadur. He and Asha meet Ravi in prison and swear to avenge his humiliation. He and Raj then set out to collect evidence - not knowing that Raj's dad, Dr. Sinha, was himself involved in Ravi's false conviction, and will not hesitate in joining forces with Rai Bahadur to eliminate all possible evidence, and if necessary kill both Ajay and Asha also.

- Written by rAjOo ([email protected])
Cast:
Ajay Devgn as Ajay R. Sharma / Ajay R. Malhotra
Akshay Kumar as Raj Sinha
Karisma Kapoor as Pooja
Nagma as Madhu
Aruna Irani as Asha R. Sharma / Asha R. Malhotra
Dalip Tahil as Dr. Sinha
Tiku Talsania as Publisher
Romesh Sharma as Dr. Ravi Malhotra
Adi Irani as Dr. Jagdish
Suresh Oberoi as Rai Bahadur


Watch-Free-HD     Download

Details
Name:Suhaag (1994) Hindi 480p HDRip X264 @ Filmiwar
Description:




-:@ General @:-

Format                                   : MPEG-4
Format profile                           : Base Media
Codec ID                                 : isom
File size                                : 804 MiB
Duration                                 : 2h 35mn
Overall bit rate                         : 721 Kbps
Writing application                      : Lavf57.25.100

Video
ID                                       : 1
Format                                   : AVC
Format/Info                              : Advanced Video Codec
Format profile                           : [email protected]
Format settings, CABAC                   : Yes
Format settings, ReFrames                : 3 frames
Codec ID                                 : avc1
Codec ID/Info                            : Advanced Video Coding
Duration                                 : 2h 35mn
Bit rate                                 : 589 Kbps
Width                                    : 854 pixels
Height                                   : 362 pixels
Display aspect ratio                     : 2.35:1
Frame rate mode                          : Variable
Frame rate                               : 23.976 fps
Minimum frame rate                       : 23.974 fps
Maximum frame rate                       : 23.981 fps
Color space                              : YUV
Chroma subsampling                       : 4:2:0
Bit depth                                : 8 bits
Scan type                                : Progressive
Bits/(Pixel*Frame)                       : 0.079
Stream size                              : 656 MiB (82%)

Audio
ID                                       : 2
Format                                   : AAC
Format/Info                              : Advanced Audio Codec
Format profile                           : LC
Codec ID                                 : 40
Duration                                 : 2h 35mn
Bit rate mode                            : Constant
Bit rate                                 : 126 Kbps
Channel count                            : 2 channels
Channel positions                        : Front: L R
Sampling rate                            : 44.1 KHz
Compression mode                         : Lossy
Delay relative to video                  : 42ms
Stream size                              : 140 MiB (17%)



-:@ ScreenShoots @:-













 Suhaag 1994 Watch Online Here



1CnbmYmViVdxgLnhqJzp2ENzsWxnx4iUyT

-:@ Visit Us @:-


[url=http://filmiwar.com/] Filmiwar

 Filmiwar

!!!...Plz Seeds After Download...!!!


Category:Movies > Bollywood
Lang:Hindi
Total Size:803.63 MB
Info Hash:122164adac2db2923ecc5f1b4e6f8465b5bbd064
Added By:filmiwar
Date Added:13-01-2018 06:43:45
Downloads:276

Download Torrent

Ratings:Not Yet Rated (Log in to rate it)


Tracker:
udp://tracker.coppersurfer.tk:6969/announce

This Torrent also has backup trackers
URLSeedersLeechersCompleted
http://ipv4.tracker.harry.lu:80/announce100
http://open.kickasstracker.com/announce110
http://tracker.devil-torrents.pl/announce000
http://t.nyaatracker.com:80/announce120
http://retracker.mgts.by:80/announce002


File List: 


Comments

<< Previous      Next >>
1 - 1

[Report] Posted: 13-01-2018 at 09:46:22
africa50



Uploaded: 0.00 B
Downloaded: 0.00 B
Ratio: ---

Nice share mate thanks

1 - 1
<< Previous      Next >>


Powered by 10 Hamsters v2-svn -|- Page Generated In 2.199873 secs.
-|- RSS Feed -|- Feed Info
Theme By: Nikkbu