Dr. Champ | Sapnon Ki Oat Main | Sama News Completed Political Programs


Login
Username:
Password:
[Signup]
[Recover Account]


Browse Torrents

Poll


You must be logged in to view polls



Torrent Details For "Byomkesh Pawrbo (2016) Bengali Movie 720p WebHDRip x264 AAC { TaRa }.mkv"

Byomkesh Pawrbo (2016) Bengali Movie 720p WebHDRip x264 AAC { TaRa }.mkv

Download this torrent | Magnet Download
Health:
Seeds: 33
Leechers: 51
Completed: 73 
Last Checked: 25-04-2017 10:30:36
External Torrent
Update Stats


Watch-Free-HD     Download

Poster


iMDB
Imdb Picture Title: Byomkesh Pawrbo
Year: 2016
Runtime: 156 minutes
Votes: 77
Rating: 6.6/10
Language: Bengali
Country: India
All Genres: Mystery
Plot Outline: Byomkesh Bakshi travails the dark jungles of Dooars solving an enigma of a ghostrider amidst a series of murders in north Bengal.
Director: Arindam Sil
Writing By: Saradindu Bandopaddhyay,
Music: Bickram Ghosh
Plot:

Byomkesh Bakshi travails the dark jungles of Dooars solving an enigma of a ghostrider amidst a series of murders in north Bengal.

- Written by anonymous
Cast:
Abir Chatterjee as Byomkesh Bakshi
Ritwick Chakraborty as Ajit Banerjee
Sohini Sarkar as Satyabati
Koushik Sen as Biswanath Mallick
Rajatabha Dutta as Badrinath Dos
Subhasish Mukherjee as Nafar Kundu
Sumanta Mukherjee as Inspector Sukhamoy Samanta
Rudranil Ghosh as Sadananda Sur
June Malia as Juthika Mallick
Arindam Sil as


Watch-Free-HD     Download

Details
Name:Byomkesh Pawrbo (2016) Bengali Movie 720p WebHDRip x264 AAC { TaRa }.mkv
Description:

Quote:

Byomkesh Pawrbo (2016) Bengali Movie 720p WebHDRip x264 AAC { TaRa }.mkv


===================================================================
General
Complete name               : Byomkesh Pawrbo (2016) Bengali Movie 720p WebHDRip x264 AAC { TaRa }.mkv
Format                      : Matroska
Format version              : Version 4 / Version 2
File size                   : 1.34 GiB
Duration                    : 1 h 55 min
Overall bit rate mode       : Variable
Overall bit rate            : 1 653 kb/s
===================================================================
Video
ID                          : 1
Format                      : AVC
Format/Info                 : Advanced Video Codec
Format profile              : [email protected]
Format settings, CABAC      : Yes
Format settings, ReFrames   : 3 frames
Codec ID                    : V_MPEG4/ISO/AVC
Duration                    : 1 h 55 min
Bit rate mode               : Variable
Bit rate                    : 1 530 kb/s
Maximum bit rate            : 1 600 kb/s
Width                       : 1 280 pixels
Height                      : 560 pixels
Display aspect ratio        : 2.25:1
Frame rate mode             : Constant
Frame rate                  : 25.000 FPS
Color space                 : YUV
Chroma subsampling          : 4:2:0
Bit depth                   : 8 bits
Scan type                   : Progressive
Bits/(Pixel*Frame)          : 0.085
Stream size                 : 1.24 GiB (93%)
Title                       : .....::::: TaRa :::::.....
Language                    : Bengali
Default                     : Yes
Forced                      : No
===================================================================
Audio
ID                          : 2
Format                      : AAC
Format/Info                 : Advanced Audio Codec
Format profile              : LC
Codec ID                    : A_AAC
Duration                    : 1 h 55 min
Bit rate                    : 121 kb/s
Channel(s)                  : 2 channels
Channel positions           : Front: L R
Sampling rate               : 44.1 kHz
Frame rate                  : 43.066 FPS (1024 spf)
Compression mode            : Lossy
Stream size                 : 100 MiB (7%)
Title                       : .....::::: TaRa :::::.....
Language                    : Bengali
Default                     : Yes
Forced                      : No
===================================================================




                                               










Category:Movies > Bengali
Lang:Bengali  Bengali
Total Size:1.34 GB
Info Hash:c1eb469564b4c5eed28e5763b6ece0dd1055f56d
Added By:SkTaRa
Date Added:25-04-2017 03:48:42
Downloads:165

Download Torrent

Ratings:Not Yet Rated (Log in to rate it)

  


Tracker:
udp://tracker.ccc.de:80/announce

This Torrent also has backup trackers
URLSeedersLeechersCompleted
http://tracker.dler.org:6969/announce000
http://ipv4.tracker.harry.lu:80/announce000
http://explodie.org:6969/announce000


File List: 


Comments

No comments still posted

Powered by 10 Hamsters v2-svn -|- Page Generated In 5.498560 secs.
-|- RSS Feed -|- Feed Info
Theme By: Nikkbu